6 Replies Latest reply: Nov 21, 2012 8:40 AM by SophieCelestine
gerardofromsan pedro Level 1 Level 1 (0 points)

Hello Folks

 

I've sorted out the pictures problem wit my classic.

 

But now the Videos, When i first loaded a bath of videos (Encoded with any video converter as .mp4) to my Classic 2009, they played fine on the ipod and itunes, yesterday tried to load another videos (encoded with E.M.C Total Video Converter) as mp4 extension.

 

All the videos play well on itunes. but those i tried to load yesterday yes they trasferred to ipod, I got no message like "cannot transfer to ipod", they transferred well.

When i clicked videos> and selected one of them, they played briefly for about 5 s. and then the menu returned back....

 

I tried resetting, restoring and no avail... so here's the info i gathered with MediaInfo

 

Video THAT PLAYS WELL on IPOD and ITUNES

 

General
Complete name                            : D:\Gerardo\Videos\pgb\Young boyz\Don't Go.mp4
Format                                   : MPEG-4
Format profile                           : Base Media / Version 2
Codec ID                                 : mp42
File size                                : 76.5 MiB
Duration                                 : 17mn 18s
Overall bit rate mode                    : Variable
Overall bit rate                         : 617 Kbps
Encoded date                             : UTC 2011-07-17 20:13:09
Tagged date                              : UTC 2011-07-17 20:13:11
Writing application                      : mp4creator 1.4.4

Video
ID                                       : 1
Format                                   : MPEG-4 Visual
Format profile                           : Simple@L3
Format settings, BVOP                    : No
Format settings, QPel                    : No
Format settings, GMC                     : No warppoints
Format settings, Matrix                  : Default (H.263)
Codec ID                                 : 20
Duration                                 : 17mn 18s
Bit rate mode                            : Variable
Bit rate                                 : 511 Kbps
Maximum bit rate                         : 1 231 Kbps
Width                                    : 320 pixels
Height                                   : 240 pixels
Display aspect ratio                     : 4:3
Frame rate mode                          : Constant
Frame rate                               : 25.000 fps
Color space                              : YUV
Chroma subsampling                       : 4:2:0
Bit depth                                : 8 bits
Scan type                                : Progressive
Compression mode                         : Lossy
Bits/(Pixel*Frame)                       : 0.266
Stream size                              : 63.3 MiB (83%)
Language                                 : English
Encoded date                             : UTC 2011-07-17 20:13:09
Tagged date                              : UTC 2011-07-17 20:13:11

Audio
ID                                       : 2
Format                                   : AAC
Format/Info                              : Advanced Audio Codec
Format profile                           : LC
Codec ID                                 : 40
Duration                                 : 17mn 18s
Source duration                          : 17mn 19s
Bit rate mode                            : Variable
Bit rate                                 : 104 Kbps
Maximum bit rate                         : 232 Kbps
Channel(s)                               : 2 channels
Channel positions                        : Front: L R
Sampling rate                            : 44.1 KHz
Compression mode                         : Lossy
Stream size                              : 12.9 MiB (17%)
Source stream size                       : 12.9 MiB
Language                                 : English
Encoded date                             : UTC 2011-07-17 20:13:11
Tagged date                              : UTC 2011-07-17 20:13:11

 

 

Video THAT plays WELL on ITUNES but Won't PLay on IPOD

 

General
Complete name                            : D:\Gerardo\Videos\pgb\Bearfilms DVD Videos\All Amateur Bears 3 - Furry *******.mp4
Format                                   : MPEG-4
Format profile                           : Base Media
Codec ID                                 : isom
File size                                : 552 MiB
Duration                                 : 1h 32mn
Overall bit rate mode                    : Variable
Overall bit rate                         : 832 Kbps

Video
ID                                       : 1
Format                                   : MPEG-4 Visual
Format profile                           : Simple@L3
Format settings, BVOP                    : No
Format settings, QPel                    : No
Format settings, GMC                     : No warppoints
Format settings, Matrix                  : Default (H.263)
Codec ID                                 : 20
Duration                                 : 1h 32mn
Bit rate                                 : 699 Kbps
Width                                    : 320 pixels
Height                                   : 240 pixels
Display aspect ratio                     : 3:2
Original display aspect ratio            : 4:3
Frame rate mode                          : Constant
Frame rate                               : 25.000 fps
Color space                              : YUV
Chroma subsampling                       : 4:2:0
Bit depth                                : 8 bits
Scan type                                : Progressive
Compression mode                         : Lossy
Bits/(Pixel*Frame)                       : 0.364
Stream size                              : 464 MiB (84%)

Audio
ID                                       : 2
Format                                   : AAC
Format/Info                              : Advanced Audio Codec
Format profile                           : LC
Codec ID                                 : 40
Duration                                 : 1h 32mn
Bit rate mode                            : Variable
Bit rate                                 : 128 Kbps
Channel(s)                               : 2 channels
Channel positions                        : Front: L R
Sampling rate                            : 44.1 KHz
Compression mode                         : Lossy
Stream size                              : 85.0 MiB (15%)


iPod classic, Windows 7, iTunes 10 latest update